我爱影视论坛

 找回密码
 立即注册
搜索
查看: 83|回复: 0

[BT下载]别有洞天/洞 Holes.2003.1080p.WEBRip.DD2.0.x264-TrollHD 10.11GB

[复制链接] [提交至百度]
  • TA的每日心情
    开心
    2016-11-27 01:20
  • 签到天数: 1 天

    [LV.1]初来乍到

    3992

    主题

    4995

    帖子

    9328

    影视币

    超级版主

    Rank: 8Rank: 8

    积分
    14402
    发表于 2017-1-11 19:33:13 | 显示全部楼层 |阅读模式

      ◎译  名 别有洞天/洞
      ◎片  名 Holes
      ◎年  代 2003
      ◎国  家 美国
      ◎类  别 冒险/喜剧/剧情/家庭/悬疑/爱情/西部
      ◎语  言 英语
      ◎上映日期 2003-04-18
      ◎IMDb评分  7.1/10 from 59,943 users
      ◎IMDb链接  http://www.imdb.com/title/tt0311289/
      ◎豆瓣评分 7.7/10 from 612 users
      ◎豆瓣链接 https://movie.douban.com/subject/1308118/
       http://www.btbtt.co
      ◎片  长 117 分钟
      ◎导  演 安德鲁·戴维斯 Andrew Davis
      ◎主  演 希亚·拉博夫 Shia Labourf
            西格妮·韦弗 Sigourney Weaver
            强·沃特 Jon Voight
            蒂姆·布雷克·尼尔森 Tim Blake Nelson
            科里奥·托马斯 Khleo Thomas
      

      ◎简  介
      

        因为一双运动鞋,斯坦利(Allan Kolman 饰)被关进了德克萨斯州的拘留所之中,尽管斯坦利实则无辜,但他祖上遗留下来的坏运气让他毫无疑问地遭受到了并不公正的审判。为了逃脱牢狱之灾,斯坦利选择了前往德州绿湖营进行劳动改造,然而,着却正是他噩梦的开始。
        绿湖营位于一片茫茫的沙漠之中,这里的管理员将来这里劳动改造的孩子们视为奴隶,处处苛责刁难,甚至布置了一个看似毫无意义的任务——在已经干涸的河床上挖洞。很快,斯坦利便开始怀疑,管理员的这一要求背后隐藏着某些不可告人的秘密,一批传说中埋在河床里的宝藏随之浮出了水面,而这批宝藏和斯坦利的家族亦有着千丝万缕的关联。
      

      Video
    ID                                       : 2
    Format                                   : AVC
    Format/Info                              : Advanced Video Codec
    Format profile                           :
    Format settings, CABAC                   : Yes
    Format settings, ReFrames                : 4 frames
    Codec ID                                 : V_MPEG4/ISO/AVC
    Duration                                 : 1h 57mn
    Bit rate mode                            : Variable
    Bit rate                                 : 12.1 Mbps
    Maximum bit rate                         : 15.0 Mbps
    Width                                    : 1 920 pixels
    Height                                   : 1 040 pixels
    Display aspect ratio                     : 1.85:1
    Frame rate mode                          : Constant
    Frame rate                               : 23.976 (24000/1001) fps
    Color space                              : YUV
    Chroma subsampling                       : 4:2:0
    Bit depth                                : 8 bits
    Scan type                                : Progressive
    Bits/(Pixel*Frame)                       : 0.253
    Stream size                              : 9.93 GiB (98%)
    Writing library                          : x264 core 148 r2623 d5b2374
    Encoding settings                        : cabac=1 / ref=4 / deblock=1:-1:-1 / analyse=0x3:0x133 / me=umh / subme=9 / psy=1 / psy_rd=1.00:0.15 / mixed_ref=1 / me_range=24 / chroma_me=1 / trellis=2 / 8x8dct=1 / cqm=0 / deadzone=21,11 / fast_pskip=1 / chroma_qp_offset=-3 / threads=32 / lookahead_threads=5 / sliced_threads=0 / nr=150 / decimate=1 / interlaced=0 / bluray_compat=0 / constrained_intra=0 / bframes=8 / b_pyramid=2 / b_adapt=2 / b_bias=0 / direct=3 / weightb=1 / open_gop=0 / weightp=2 / keyint=120 / keyint_min=61 / scenecut=0 / intra_refresh=0 / rc_lookahead=120 / rc=crf / mbtree=1 / crf=18.0 / qcomp=0.60 / qpmin=0 / qpmax=69 / qpstep=4 / vbv_maxrate=15000 / vbv_bufsize=31250 / crf_max=0.0 / nal_hrd=vbr / filler=0 / ip_ratio=1.40 / aq=3:1.00
    Default                                  : Yes
    Forced                                   : No
    Color range                              : Limited
    Color primaries                          : BT.709
    Transfer characteristics                 : BT.709
    Matrix coefficients                      : BT.709

    Audio
    ID                                       : 1
    Format                                   : E-AC-3
    Format/Info                              : Audio Coding 3
    Format settings, Endianness              : Big
    Codec ID                                 : A_EAC3
    Duration                                 : 1h 57mn
    Bit rate mode                            : Constant
    Bit rate                                 : 224 Kbps
    Channel(s)                               : 2 channels
    Channel positions                        : Front: L R
    Sampling rate                            : 48.0 KHz
    Frame rate                               : 187.500 fps (256 spf)
    Compression mode                         : Lossy
    Stream size                              : 188 MiB (2%)
    Language                                 : English
    Default                                  : Yes
    Forced                                   : No

    Text
    ID                                       : 3
    Format                                   : UTF-8
    Codec ID                                 : S_TEXT/UTF8
    Codec ID/Info                            : UTF-8 Plain Text
    Duration                                 : 1h 56mn
    Bit rate                                 : 82 bps
    Count of elements                        : 2539
    Stream size                              : 71.0 KiB (0%)
    Default                                  : Yes
    Forced                                   : No

      

      














                            
         
                         1 个附件               
                                  
    Holes.2003.1080p.WEBRip.DD2.0.x264-TrollHD[ ].torrent (51.16 KB, 下载次数: 16)
    您需要登录后才可以回帖 登录 | 立即注册

    本版积分规则

    QQ|Archiver|手机版|小黑屋|我爱影视论坛  |网站地图
    本网站所有资源来自网络,仅供学习和交流,如无意中侵犯了您的权益,请发邮件至yslt52com@foxmail.com,立即清除相关链接.

    GMT+8, 2017-6-24 01:15 , Processed in 0.473469 second(s), 33 queries .

    Powered by Discuz! X3.2

    © 2001-2013 Comsenz Inc.

    快速回复 返回顶部 返回列表